Resultados 1 al 7 de 7

Tema: Silver (1999) +

  1. #1
    Leyenda Asia-Team Avatar de mambakiss
    Fecha de ingreso
    06-06-2007
    Ubicación
    En una nave base Cylon... rodeado de Boomers...
    Mensajes
    433
    Agradecimientos: 15781

    Japón Silver (1999) +




    Silver (1999)



    Jun Shirogane es una bella experta en karate que vuelve a Japón tras haber estado entrenando con el FBI en Estados Unidos. Tras su retorno, un antiguo compañero la recluta para trabajar para un grupo especial de operaciones y luchar contra una malvada ama sadomasoquista, así como para formar parte de su equipo de lucha libre femenina Lovely Ladies Pro Wrestling. (FILMAFFINITY)







    Director: Takashi Miike.
    Actores: Kenji Haga, Shinobu Kandori, Rumi Kazama.
    Idioma: Japonés.
    Género: Comedia.
    Duración: 79 Minutos.

    Video: ? ? 25 fps ? Kb/s (DVDRip)
    Audio: Japonés (VO) MP3 128 Kb/s







    Bajar Torrent



    Despofiles
    Código:
    Gracias a LuisIreneo para AT
    UNIR CON HJ-SPLIT
    
    http://depositfiles.org/files/7c7dtjuij
    http://depositfiles.org/files/rykqnm4z6
    RECUERDA, para poder visualizar estos archivos de video, debes renombrarlos agregándoles la extensión .AVI


    Bajar Subtitulo en Español (Kaoru) (Allzine)
    Archivos adjuntados Archivos adjuntados

  2. Los siguientes 15 usuarios agradecen a mambakiss por este tema:


  3. #2
    Cinturón Marrón Avatar de orfeo12
    Fecha de ingreso
    26-06-2007
    Ubicación
    Natalingrado
    Mensajes
    645
    Agradecimientos: 3

    Predeterminado Re: Silver (1999)

    De lo mas flojo que le vi a Takashi Miike, se deja ver pero asta ahí.

  4. #3
    Cinturón Negro Avatar de Jamsa25
    Fecha de ingreso
    30-03-2003
    Mensajes
    1,456
    Agradecimientos: 1872

    Predeterminado Respuesta: Silver (1999)

    No está mal aunque Miike tiene muchas mejores, la actriz está potente jaja.

  5. #4
    Cinturón Negro Avatar de valekiara
    Fecha de ingreso
    06-11-2008
    Mensajes
    1,549
    Agradecimientos: 18

    Predeterminado Respuesta: Silver (1999)

    4/10 Para los/las amantes de las delanteras protuberantes porque con diferencia es lo que mas destaca del film aparte de una o dos cortas peleas. Solo para fans de Miike o de las frikadas bizarras, ojo al par de momentos Miike:

    Spoiler:
    SPOILER:
    Cuando la mala malísima súper mega sadomasoquista llena un pote de orina en una pose estilo yoga y obliga a bebérsela a su lacayo.

    La escena que están todos en un bar sadomaso, tampoco se explica porque y una de las luchadoras azota aun tío y otra mas bonita con vestido rojo y los pezones al aire empieza a azotar un gran pene pixelado, desvaríos varios, nótese que el sonido del azote a semejante miembro tiene lugar antes del golpe, ignorando si es problema del archivo o es asi de cutre el montaje de sonido que hicieron.

    La escena en que la mala sadomasoquista se echa cera en los pezones y llega Silver para vengarse tampoco tiene desperdicio.

    Pero ninguna de estas escenas justifica ni salva una película que ni siquiera desarrolla su trama, dejando la historia no solo inconclusa sino que sin haber llegado a ninguna parte, puede que todo fuera una excusa o hubiera proyecto de mas películas, porque con esta hora y media al final te quedas casi igual que al principio.

    Spoiler:
    SPOILER:
    Como dice el mismo Miike: -Que me devuelvan las dos horas que perdi viendo esto.
    Pero de lo malo tambien se aprende.


  6. #5
    Cinturón Azul Avatar de ranxomare
    Fecha de ingreso
    23-02-2010
    Ubicación
    En un pequeño habitaculo del recuerdo de cada uno.
    Edad
    38
    Mensajes
    340
    Agradecimientos: 2

    Predeterminado Respuesta: Silver (1999)

    Esta película son las que denomino "Mundo de Miike", porque madre mia, la historia, los elementos que la componen y su entrelazado, son tan raros como un verano sin sol

    Para mi, no me gusto nada en absoluto

    Saludos

  7. #6
    Cinturón Amarillo Avatar de Anarkotik
    Fecha de ingreso
    22-03-2011
    Ubicación
    Sallent to Hell
    Mensajes
    96
    Agradecimientos: 4

    Predeterminado Silver.(Acción/Thriller/Erótico) [DVDRip] [1999] [V.O.S.E]



    Spoiler:
    SPOILER:
    TÍTULO ORIGINAL Shirubaa (Silver)
    AÑO 1999
    DURACIÓN 79 min.
    PAÍS Japón
    DIRECTOR Takashi Miike
    GUIÓN Hisao Maki, Saburô Takemoto (Cómic: Hisao Maki)
    FOTOGRAFÍA Yasuhiko Mitsui
    REPARTO Atsuko Sakuraba, Kenji Haga, Shinobu Kandori, Rumi Kazama, Hisao Maki, Fujio Matsushima, Kôji Tsukamoto
    PRODUCTORA Cinema Paradise / Museum
    GÉNERO Acción. Thriller. Drama | Erótico. Crimen. Manga.


    Spoiler:
    SPOILER:
    Jun Shirogane es una bella experta en karate que vuelve a Japón tras haber estado entrenando con el FBI en Estados Unidos. Tras su retorno, un antiguo compañero la recluta para trabajar para un grupo especial de operaciones y luchar contra una malvada ama sadomasoquista, así como para formar parte de su equipo de lucha libre femenina Lovely Ladies Pro Wrestling. (FILMAFFINITY)


    Spoiler:
    SPOILER:


    Spoiler:
    SPOILER:
    Código:
    General
    Complete name                    : D:\Silver[1999][Vose-Subs Incrustados][Accion].avi
    Format                           : AVI
    Format/Info                      : Audio Video Interleave
    File size                        : 799 MiB
    Duration                         : 1h 18mn
    Overall bit rate                 : 1 417 Kbps
    Writing library                  : MPlayer
    
    Video
    Format                           : MPEG-4 Visual
    Format profile                   : Simple@L1
    Format settings, BVOP            : No
    Format settings, QPel            : No
    Format settings, GMC             : No warppoints
    Format settings, Matrix          : Default
    Codec ID                         : DX50
    Codec ID/Hint                    : DivX 5
    Duration                         : 1h 18mn
    Bit rate                         : 1 675 Kbps
    Width                            : 640 pixels
    Height                           : 360 pixels
    Display aspect ratio             : 16/9
    Frame rate                       : 29.970 fps
    Resolution                       : 24 bits
    Colorimetry                      : 4:2:0
    Scan type                        : Progressive
    Bits/(Pixel*Frame)               : 0.243
    Stream size                      : 944 MiB (118%)
    Writing library                  : Lavc51.11.0
    
    Audio
    Format                           : MPEG Audio
    Format version                   : Version 1
    Format profile                   : Layer 3
    Codec ID                         : 55
    Codec ID/Hint                    : MP3
    Duration                         : 1h 18mn
    Bit rate mode                    : Variable
    Bit rate                         : 182 Kbps
    Channel(s)                       : 1 channel
    Sampling rate                    : 48.0 KHz
    Resolution                       : 16 bits
    Stream size                      : 103 MiB (13%)
    Alignment                        : Aligned on interleaves
    Interleave, duration             : 24 ms (0.72 video frame)
    Interleave, preload duration     : 534 ms



    Entra en www.decode2.com y decodifica este código para obtener los contenidos: 47FTDHSGES

    Entra en www.decode2.com y decodifica este código para obtener los contenidos: GTJDUHIMPH

    Entra en www.decode2.com y decodifica este código para obtener los contenidos: AT7ZDSBMRE



  8. Los siguientes usuarios agradecen a Anarkotik por este tema:


  9. #7
    Cinturón Negro Avatar de valekiara
    Fecha de ingreso
    06-11-2008
    Mensajes
    1,549
    Agradecimientos: 18

    Predeterminado Respuesta: Silver (1999)

    Es posible que sean dos peliculas y solo tengamos una posteada? todavia recuerdo su abrupto final....

Información de tema

Usuarios viendo este tema

Actualmente hay 1 usuarios viendo este tema. (0 miembros y 1 visitantes)

Marcadores

Permisos de publicación

  • No puedes crear nuevos temas
  • No puedes responder temas
  • No puedes subir archivos adjuntos
  • No puedes editar tus mensajes
  •