Resultados 1 al 6 de 6

Tema: Shinjuku Triad Society (1995) [Scream22] +

  1. #1
    ADMINISTRADOR Avatar de japezoa
    Fecha de ingreso
    08-03-2003
    Ubicación
    Santiago
    Edad
    41
    Mensajes
    7,467
    Agradecimientos: 24291


    Seguir a japezoa en Twitter Agrega a japezoa en Facebook

    Japón Shinjuku Triad Society (1995) [Scream22] +




    Shinjuku Triad Society (1995)



    Primera de las tres películas que integran la trilogía Kuroshakai ("Sociedad Negra"), unidas por tema más que por personajes o argumento, a la que siguen "Rainy Dog" y "Ley Lines". En esta, la trama gira alrededor de una batalla mafiosa por el control del distrito de Shinjuku. Cuando la banda taiwanesa Garra del Dragón intente hacerse con el dominio de la venta de droga, el cobro de extorsiones y la prostitución gay de esa zona, un policía solitario intentará evitar una carnicería.







    Director: Takashi Miike.
    Protagonistas: Takeshi Caesar, Kyosuke Izutsu, Ren
    Duración: 100 Minutos.
    Género: Crimen.







    Bajar Torrent
    Con Registro AsiaTorrent



    Despofiles
    Código:
    Gracias a  davin33 para AT
    
    http://dfiles.eu/files/nuqe8b200
    RECUERDA, para poder visualizar estos archivos de video, debes renombrarlos agregándoles la extensión .AVI



    Bajar Subtitulo en Español (Kaoru) (Allzine)
    Archivos adjuntados Archivos adjuntados

  2. Los siguientes 24 usuarios agradecen a japezoa por este tema:


  3. #2
    Moderador Avatar de davidn33
    Fecha de ingreso
    21-06-2009
    Mensajes
    2,571
    Agradecimientos: 2952

    Predeterminado Respuesta: Shinjuku Triad Society (1995) [Scream22]

    En su momento me pareció de lo major de Miike (especialmente Ley Lines). Un gran aporte. Gracias.

  4. #3
    Cinturón Negro Avatar de valekiara
    Fecha de ingreso
    06-11-2008
    Mensajes
    1,567
    Agradecimientos: 33

    Predeterminado Respuesta: Shinjuku Triad Society (1995) [Scream22]

    A mi me falta por ver una, pero recuerdo que rainy dog me gusto mucho, fans de mike y amantes del cine negro disfrutaran con ellas
    yo las recomiendo.

  5. #4
    Cinturón Amarillo Avatar de Anarkotik
    Fecha de ingreso
    22-03-2011
    Ubicación
    Sallent to Hell
    Mensajes
    100
    Agradecimientos: 18

    Predeterminado (Shinjuku Triad Society)(1995)(V.O.S.E.)



    Spoiler:
    SPOILER:
    Shinjuku Triad Society
    TÍTULO ORIGINAL Shinjuku kuroshakai: Chaina mafia sensô (Shinjuku Triad Society)
    AÑO 1995
    DURACIÓN 100 min.
    PAÍS
    DIRECTOR Takashi Miike
    GUIÓN Ichirô Fujita
    MÚSICA Atorie Shira
    FOTOGRAFÍA Naosuke Imaizumi
    REPARTO Kippei Shiina, Tomorowo Taguchi, Takeshi Caesar, Ren Osugi, Yukie Itou, Kyosuke Izutsu, Kazuhiro Mashiko, Airi Yanagi
    PRODUCTORA Daiei Motion Picture Company / Excellent Film
    GÉNERO Thriller. Drama | Crimen. Yakuza & Triada


    Spoiler:
    SPOILER:

    Primera de las tres películas que integran la trilogía Kuroshakai ("Sociedad Negra"), unidas por tema más que por personajes o argumento, a la que siguen "Rainy Dog" y "Ley Lines". En esta, la trama gira alrededor de una batalla mafiosa por el control del distrito de Shinjuku. Cuando la banda taiwanesa Garra del Dragón intente hacerse con el dominio de la venta de droga, el cobro de extorsiones y la prostitución gay de esa zona, un policía solitario intentará evitar una carnicería. (FILMAFFINITY)


    Spoiler:
    SPOILER:


    Spoiler:
    SPOILER:

    General
    Complete name : C: Shinjuku Triad Society.avi
    Format : AVI
    Format/Info : Audio Video Interleave
    File size : 700 MiB
    Duration : 1h 41mn
    Overall bit rate : 966 Kbps
    Writing application : VirtualDubMod 1.5.4.1 (build 2178/release)
    Writing library : VirtualDubMod build 2178/release

    Video
    Format : MPEG-4 Visual
    Format profile : Streaming Video@L1
    Format settings, BVOP : Yes
    Format settings, QPel : No
    Format settings, GMC : No warppoints
    Format settings, Matrix : Custom
    Codec ID : XVID
    Codec ID/Hint : XviD
    Duration : 1h 41mn
    Bit rate : 843 Kbps
    Width : 688 pixels
    Height : 400 pixels
    Display aspect ratio : 16/9
    Frame rate : 25.000 fps
    Resolution : 24 bits
    Colorimetry : 4:2:0
    Scan type : Progressive
    Bits/(Pixel*Frame) : 0.123
    Stream size : 611 MiB (87%)
    Writing library : XviD 1.2.0.dev47 (UTC 2006-11-01)

    Audio
    Format : MPEG Audio
    Format version : Version 1
    Format profile : Layer 3
    Codec ID : 55
    Codec ID/Hint : MP3
    Duration : 1h 41mn
    Bit rate mode : Variable
    Bit rate : 110 Kbps
    Minimum bit rate : 128 Kbps
    Channel(s) : 2 channels
    Sampling rate : 48.0 KHz
    Resolution : 16 bits
    Stream size : 79.6 MiB (11%)
    Alignment : Anarkotik pirata
    Interleave, duration : 24 ms (0.60 video frame)
    Interleave, preload duration : 545 ms
    Writing library : LAME3.97
    Encoding settings : ABR


    http://youtu.be/kxfWkzvoGBQ

    Click en http://www.enlaceitor.com/enlace.php?id=16570 para obtener el contenido del enlace.

  6. Los siguientes usuarios agradecen a Anarkotik por este tema:


  7. #5
    Cinturón Negro Avatar de valekiara
    Fecha de ingreso
    06-11-2008
    Mensajes
    1,567
    Agradecimientos: 33

    Predeterminado

    Definitivamente: Muy buena. Llevaba tiempo pendiente, gracias a todos.

  8. #6
    Cinturón Azul Avatar de AndemaruM
    Fecha de ingreso
    05-07-2008
    Ubicación
    bajo un puente
    Mensajes
    471
    Agradecimientos: 911

  9. Los siguientes usuarios agradecen a AndemaruM por este tema:

     hugoli

Información de tema

Usuarios viendo este tema

Actualmente hay 1 usuarios viendo este tema. (0 miembros y 1 visitantes)

Marcadores

Permisos de publicación

  • No puedes crear nuevos temas
  • No puedes responder temas
  • No puedes subir archivos adjuntos
  • No puedes editar tus mensajes
  •