Resultados 1 al 7 de 7

Tema: Young Thugs: Innocent Blood (1997) +

  1. #1
    Leyenda Asia-Team Avatar de Shion
    Fecha de ingreso
    18-03-2005
    Ubicación
    Yoochiri
    Edad
    38
    Mensajes
    2,133
    Agradecimientos: 18675


    Seguir a Shion en Twitter Agrega a Shion en Facebook

    Japón Young Thugs: Innocent Blood (1997) +




    Young Thugs: Innocent Blood (1997)



    Película que, con algunos tintes autobiográficos añadidos por el director, narra las peripecias de tres jóvenes que tras dejar el instituto intentan ganarse la vida en la ciudad de Osaka.







    Director: Takashi Miike.
    Protagonistas: Takeshi Caesar, Kôji Chihara, Seiji Chihara, Noriko Eguchi, Moeko Ezawa, Marie Kikuchi, Kazuki Kitamura, Takashi Miike.
    Duración: 107 Minutos.
    Género: Drama, Acción, Comedia.

    Vídeo: DivX 720x480 23,976 fps (DVDRip)
    Audio: Japonés (VO) MP3 128 Kb/s






    Bajar Torrent
    Con Registro AsiaTorrent



    Despofiles
    Código:
    Gracias a davidn33 para AT
    
    http://dfiles.eu/files/0zohk57fy
    RECUERDA, para poder visualizar estos archivos de video, debes renombrarlos agregándoles la extensión .AVI




    Bajar Subtítulo en Español (Kaoru©) (AllZine)
    Archivos adjuntados Archivos adjuntados

  2. Los siguientes 19 usuarios agradecen a Shion por este tema:


  3. #2
    Cinturón Verde Avatar de crudito
    Fecha de ingreso
    27-04-2008
    Mensajes
    166
    Agradecimientos: 1

    Predeterminado Re: Young Thugs: Innocent Blood (1997)

    al fin ya la baje, me confundi con otra peli q se llama
    Kishiwada Shonen Gurentai - Boukyo-Hen
    pero al fin busque cual peli es cual y le puse los subs, a ver que tal, la empece a ver y me parecio equis, sin embargo hay q darle una oportunidad XP

  4. #3
    Cinturón Negro Avatar de valekiara
    Fecha de ingreso
    06-11-2008
    Mensajes
    1,567
    Agradecimientos: 33

    Predeterminado Respuesta: Young Thugs: Innocent Blood (1997)

    Confirmado es Innocent blood, una version de buena calidad ademas, lo unico que los subs no calzan habría que sincronizarlos y es complicado por los creditos.

    Aprovechad de bajarla todos los interesasdos, os digo que es muuuuy dificil conseguirla,como que hay mucha confusión en la red con esta y nostalgia.

    gracias y saludos,
    esperando sub. sincronizados

  5. #4
    Cinturón Negro Avatar de valekiara
    Fecha de ingreso
    06-11-2008
    Mensajes
    1,567
    Agradecimientos: 33

    Predeterminado Respuesta: Young Thugs: Innocent Blood (1997)

    Bueno, bueno, bueno, despues de tanto tiempo y la verdad no me pareció de las mejoresde Miike, tiene una historia bastante dinamica pero un ritmo irregular, un poco bastante de comedia, poca pelea a pesar de lo que uno pensaba, amor y una pizca de tragedia.

    Que cada uno juzgue por si mismo. Aburrir tampoco aburre.

    5/10 Es una opinión muy personal.

    gracias por el aporte.

    Por cierto el cameo de Miike, si os fijais es al principio entre un grupo de jugadores callejeros, se ve claramente, ademas lleva su inseparable abrigo verde militar, o tienes muchas iguales o le tiene mucho cariño.


  6. Los siguientes usuarios agradecen a valekiara por este tema:


  7. #5
    Cinturón Amarillo Avatar de Anarkotik
    Fecha de ingreso
    22-03-2011
    Ubicación
    Sallent to Hell
    Mensajes
    100
    Agradecimientos: 18

    Japón Respuesta: Young Thugs: Innocent Blood (1997)(V.O.S.E.)



    Spoiler:
    SPOILER:
    Young Thugs: Innocent Blood

    TÍTULO ORIGINAL Kishiwada shônen gurentai: Chikemuri junjô-hen (Young Thugs: Innocent Blood)
    AÑO 1997
    DURACIÓN 108 min.
    PAÍS
    DIRECTOR Takashi Miike
    GUIÓN Masa Nakamura (Novela: Riichi Nakaba)
    MÚSICA Tomio Terada
    FOTOGRAFÍA Hideo Yamamoto
    REPARTO Takeshi Caesar, Kôji Chihara, Seiji Chihara, Noriko Eguchi, Moeko Ezawa, Marie Kikuchi, Kazuki Kitamura, Takashi Miike
    PRODUCTORA Sedic / Yoshimoto Kogyo Company
    GÉNERO Acción. Comedia. Drama | Adolescencia


    Spoiler:
    SPOILER:

    Película que, con algunos tintes autobiográficos añadidos por el director, narra las peripecias de tres jóvenes que tras dejar el instituto intentan ganarse la vida en la ciudad de Osaka. (FILMAFFINITY)


    Spoiler:
    SPOILER:


    Spoiler:
    SPOILER:

    General
    Complete name : C:\Young Thugs-Innocent Blood.avi
    Format : AVI
    Format/Info : Audio Video Interleave
    File size : 700 MiB
    Duration : 1h 47mn
    Overall bit rate : 908 Kbps
    Writing application : VirtualDubMod 1.5.4.1 (build 2178/release)
    Writing library : VirtualDubMod build 2178/release

    Video
    Format : MPEG-4 Visual
    Format profile : Streaming Video@L1
    Format settings, BVOP : Yes
    Format settings, QPel : No
    Format settings, GMC : No warppoints
    Format settings, Matrix : Custom
    Codec ID : XVID
    Codec ID/Hint : XviD
    Duration : 1h 47mn
    Bit rate : 781 Kbps
    Width : 640 pixels
    Height : 368 pixels
    Display aspect ratio : 16/9
    Frame rate : 23.976 fps
    Resolution : 24 bits
    Colorimetry : 4:2:0
    Scan type : Progressive
    Bits/(Pixel*Frame) : 0.138
    Stream size : 602 MiB (86%)
    Writing library : XviD 1.2.0SMP (UTC 2006-01-08)

    Audio
    Format : MPEG Audio
    Format version : Version 1
    Format profile : Layer 3
    Codec ID : 55
    Codec ID/Hint : MP3
    Duration : 1h 47mn
    Bit rate mode : Variable
    Bit rate : 114 Kbps
    Minimum bit rate : 128 Kbps
    Channel(s) : 2 channels
    Sampling rate : 48.0 KHz
    Resolution : 16 bits
    Stream size : 88.1 MiB (13%)
    Alignment : Knu Pirata
    Interleave, duration : 24 ms (0.58 video frame)
    Interleave, preload duration : 554 ms
    Writing library : LAME3.97b
    Encoding settings : ABR


    http://youtu.be/Wfh0XSX8tdI


    Click en http://www.enlaceitor.com/enlace.php?id=3472 para obtener el contenido del enlace.


  8. Los siguientes usuarios agradecen a Anarkotik por este tema:


  9. #6
    Cinturón Naranja Avatar de gloky
    Fecha de ingreso
    21-08-2008
    Mensajes
    51
    Agradecimientos: 2

    Predeterminado

    subtitulos sincronizados!! va bien con la DD http://depositfiles.org/files/y0g2c70zm







    Sanful: Gracias compi!!!
    Los pongo en archivo adjunto para que no se pierdan!!!!
    Archivos adjuntados Archivos adjuntados

  10. Los siguientes usuarios agradecen a gloky por este tema:


  11. #7
    Cinturón Azul Avatar de AndemaruM
    Fecha de ingreso
    05-07-2008
    Ubicación
    bajo un puente
    Mensajes
    471
    Agradecimientos: 910

  12. Los siguientes 2 usuarios agradecen a AndemaruM por este tema:


Información de tema

Usuarios viendo este tema

Actualmente hay 1 usuarios viendo este tema. (0 miembros y 1 visitantes)

Marcadores

Permisos de publicación

  • No puedes crear nuevos temas
  • No puedes responder temas
  • No puedes subir archivos adjuntos
  • No puedes editar tus mensajes
  •